#TITLE:It's A Party;
#SUBTITLE:;
#ARTIST:Jenny Rom VS S&K;
#TITLETRANSLIT:;
#SUBTITLETRANSLIT:;
#ARTISTTRANSLIT:;
#CREDIT:;
#BANNER:It's A Party-banner.png;
#BACKGROUND:It's A Party-bg.png;
#LYRICSPATH:;
#CDTITLE:;
#MUSIC:It's A Party.mp3;
#MUSICLENGTH:91.794;
#OFFSET:-0.080;
#SAMPLESTART:67.225;
#SAMPLELENGTH:12.000;
#SELECTABLE:YES;
#BPMS:0.000=171.400;
#STOPS:;
#BGCHANGES:;
#FIRSTBEAT:8.000;

#LASTBEAT:260.500;

#SONGFILENAME:Songs/ERICth MIX 2nd Style/Party/party.sm;

#HASMUSIC:1;

#HASBANNER:1;


//---------------dance-single - MANIAC----------------
#NOTES:
     dance-single:
     MANIAC:
     hard:
     9:
     0.623,0.635,0.599,0.054,0.185,340.000,55.000,5.000,0.000,0.000:

0000
0000
0000
0000
,
0000
0000
0000
0000
,
1000
0000
1000
0000
,
0000
0000
0010
1000
0100
0000
0011
0000
,
1000
0000
0000
0000
0000
0000
0100
0000
0000
0000
0000
0000
0010
0000
0000
0000
0000
0000
0001
0000
0000
0000
0000
0000
1000
0000
0000
0001
0000
0000
0000
0000
1000
0000
0000
0000
0000
0000
0000
0000
0000
0000
0000
0000
0000
0000
0000
0000
,
0001
0000
0000
0000
0000
0000
0100
0000
0000
0000
0000
0000
0010
0000
0000
0000
0000
0000
1000
0000
0000
0000
0000
0000
0001
0000
0000
1000
0000
0000
0000
0000
0001
0000
0000
0000
0000
0000
0000
0000
0000
0000
0000
0000
0000
0000
0000
0000
,
1000
0000
0000
0000
0000
0000
0100
0000
0000
0000
0000
0000
0010
0000
0000
0000
0000
0000
0001
0000
0000
0000
0000
0000
1000
0000
0000
0001
0000
0000
0000
0000
1000
0000
0000
0000
0000
0000
0000
0000
0000
0000
0000
0000
0000
0000
0000
0000
,
0010
0010
1000
0100
0010
0000
0110
0000
,
1000
0100
0010
0001
0200
0000
0300
0000
,
0011
0000
1100
0000
0010
1000
0001
0000
,
0010
0000
0000
1000
0001
0000
0100
0000
0001
0000
0010
0000
0000
0000
0000
0000
,
0010
0000
0000
0001
1000
0000
0100
0000
1000
0000
0010
0000
0110
0000
0000
0000
,
0000
0000
0100
0010
0001
0000
0011
0000
,
1100
0000
0101
0000
1000
0100
0001
0000
,
0100
0000
0000
0100
0010
0000
0001
0000
0010
0000
1000
0000
0000
0000
0000
0000
,
0110
0000
0000
0010
0001
0000
0100
0000
0001
0000
1000
0000
0001
0000
0000
0000
,
0000
0000
1010
0010
0010
0000
1001
0000
,
0011
0000
1100
0000
0010
1000
0001
0000
,
0010
0000
0000
1000
0001
0000
0100
0000
0001
0000
0010
0000
0000
0000
0000
0000
,
0010
0000
0000
0001
1000
0000
0100
0000
1000
0000
0010
0000
0110
0000
0000
0000
,
0000
0000
0100
0010
0001
0000
0011
0000
,
1100
0000
0101
0000
1000
0100
0001
0000
,
0100
0000
0000
0100
0010
0000
0001
0000
0010
0000
1000
0000
0000
0000
0000
0000
,
0110
0000
0000
0010
0001
0000
0100
0000
0001
0000
1000
0000
0001
0000
0000
0000
,
0000
0000
1010
0010
0010
0000
1001
0000
,
1000
0000
0000
0000
0000
0000
0100
0000
0000
0000
0000
0000
0001
0000
0000
0000
0000
0000
0100
0000
0000
0000
0000
0000
1000
0000
0000
0001
0000
0000
0000
0000
0100
0000
0000
0000
0000
0000
0000
0000
0000
0000
0000
0000
0000
0000
0000
0000
,
0001
0000
0000
0000
0000
0000
0100
0000
0000
0000
0000
0000
1000
0000
0000
0000
0000
0000
0100
0000
0000
0000
0000
0000
0001
0000
0000
1000
0000
0000
0000
0000
0010
0000
0000
0000
0000
0000
0000
0000
0000
0000
0000
0000
0000
0000
0000
0000
,
0100
0000
0000
0000
0000
0000
0010
0000
0000
0000
0000
0000
0100
0000
0000
0000
0000
0000
0010
0000
0000
0000
0000
0000
0100
0000
0000
0001
0000
0000
0000
0000
0001
0000
0000
0000
0000
0000
0000
0000
0000
0000
0000
0000
0000
0000
0000
0000
,
1001
0000
0010
1000
0001
0000
1001
0000
,
1000
0000
0000
0000
0000
0000
0100
0000
0000
0000
0000
0000
0001
0000
0000
0000
0000
0000
0100
0000
0000
0000
0000
0000
1000
0000
0000
0001
0000
0000
0000
0000
0100
0000
0000
0000
0000
0000
0000
0000
0000
0000
0000
0000
0000
0000
0000
0000
,
0001
0000
0000
0000
0000
0000
0100
0000
0000
0000
0000
0000
1000
0000
0000
0000
0000
0000
0100
0000
0000
0000
0000
0000
0001
0000
0000
1000
0000
0000
0000
0000
0010
0000
0000
0000
0000
0000
0000
0000
0000
0000
0000
0000
0000
0000
0000
0000
,
0100
0000
0000
0000
0000
0000
0010
0000
0000
0000
0000
0000
0100
0000
0000
0000
0000
0000
0010
0000
0000
0000
0000
0000
0100
0000
0000
1000
0000
0000
0000
0000
1000
0000
0000
0000
0000
0000
0000
0000
0000
0000
0000
0000
0000
0000
0000
0000
,
0110
0000
1100
1100
0101
0000
0101
0000
,
1000
0001
1000
0001
0100
0000
0010
0100
,
0010
0100
0001
0100
1000
0000
1000
0001
,
1000
0000
1100
0000
0011
0000
0100
0010
,
0100
0000
0110
0000
0010
1000
0100
0000
,
1000
1000
0100
0100
0010
0000
0100
0001
,
1000
0100
0001
0100
0010
0000
1001
0001
,
0101
0000
1000
0001
1001
0000
1000
0010
,
0000
2000
0000
0000
3000
0000
0010
1000
,
0100
1000
0010
0000
0010
0000
0010
0001
,
0100
0001
0010
0000
0010
0000
0010
0100
,
0100
0000
0001
0100
1000
0000
1001
0000
,
0001
0000
0110
0000
1100
0011
0000
2200
,
0000
0000
0000
0000
,
0000
0000
0000
0000
,
0000
0000
0000
3300
,
1000
0100
0010
0100
2000
0000
3000
0000
,
0011
0000
1100
0000
0010
1000
0001
0000
,
0010
0000
0000
1000
0001
0000
0100
0000
0001
0000
0010
0000
0000
0000
0000
0000
,
0010
0000
0000
0001
1000
0000
0100
0000
1000
0000
0010
0000
0110
0000
0000
0000
,
0000
0000
0100
0010
0001
0000
0011
0000
,
1100
0000
0101
0000
1000
0100
0001
0000
,
0100
0000
0000
0100
0010
0000
0001
0000
0010
0000
1000
0000
0000
0000
0000
0000
,
0110
0000
0000
0010
0001
0000
0100
0000
0001
0000
1000
0000
0001
0000
0000
0000
,
0000
0000
1010
0010
0010
0000
1001
0000
,
0011
0000
1100
0000
0010
1000
0001
0000
,
0010
0000
0000
1000
0001
0000
0100
0000
0001
0000
0010
0000
0000
0000
0000
0000
,
0010
0000
0000
0001
1000
0000
0100
0000
1000
0000
0010
0000
0110
0000
0000
0000
,
0000
0000
0100
0010
0001
0000
0011
0000
,
1100
0000
0101
0000
1000
0100
0001
0000
,
0100
0000
0000
0100
0010
0000
0001
0000
0010
0000
1000
0000
0000
0000
0000
0000
,
0110
0000
0000
0010
0001
0000
0100
0000
0001
0000
1000
0000
0001
0000
0000
0000
,
0000
0000
1000
0001
1000
0000
1001
0000;

//---------------dance-single - ANOTHER----------------
#NOTES:
     dance-single:
     ANOTHER:
     medium:
     5:
     0.422,0.426,0.098,0.054,0.000,257.000,9.000,5.000,0.000,0.000:

0000
0000
0000
0000
,
0000
0000
0000
0000
,
0002
0000
0000
0000
,
0000
0003
1000
0100
0010
0000
0001
0000
,
1000
0000
0100
0000
0010
0001
0010
0000
,
0001
0000
1000
0000
0010
1000
0010
0000
,
0002
0000
0000
0000
,
0000
0000
1003
0100
0010
0000
0001
0000
,
1000
0001
1000
0001
1000
0000
0001
0000
,
0001
0000
1000
0000
0100
0010
0100
0000
,
0001
0000
0000
1000
0010
1000
0000
0000
,
0001
0000
0000
1000
0010
1000
0001
0000
,
0000
0000
0100
0001
0010
0000
0001
0000
,
1000
0000
0100
0000
0010
0100
0010
0000
,
0001
0000
1000
0100
0010
0100
0000
0000
,
0100
0000
0000
1000
0001
1000
0001
0000
,
0000
0001
0100
0010
,
0010
1000
0000
0001
,
1000
0001
1000
0100
0010
0100
0000
0000
,
0001
0000
1000
0010
1000
0100
0010
0000
,
0000
0000
0001
0100
0001
0000
0001
0000
,
0001
0000
1000
0000
0100
0010
0100
0000
,
0100
0000
1000
0001
0100
0010
0000
0000
,
0010
0000
0100
0010
0100
0010
0100
0000
,
0000
0110
0000
0000
,
1001
2000
0000
0000
0100
0000
0000
0000
,
0010
3000
0001
0000
0100
0000
0000
0000
,
0010
0001
1000
0000
,
0100
0000
0010
0100
0010
0000
0002
0000
,
0100
0000
1000
0010
,
1000
0000
0100
0000
0000
0003
0010
0000
,
1000
0100
0010
0000
,
1000
0000
0100
0010
0100
0000
0001
0000
,
1000
0000
0100
0000
,
0010
1000
0010
1000
0010
0000
0000
0000
,
0000
0011
0011
0000
,
0000
1010
0000
0011
,
0000
0000
1010
0000
0010
0000
1000
0001
,
0010
0100
1000
0000
0001
0000
0000
0000
,
0001
0000
0010
0001
0010
0000
0000
0000
,
0000
0001
0000
1000
0000
0001
0000
0000
,
1100
0010
0000
0010
,
1000
0001
0010
0000
0001
0000
0000
0000
,
1000
0100
0010
0001
,
0100
0000
0001
0000
1000
0010
0000
0010
,
0000
0010
0000
0010
0000
0010
0000
0010
,
0000
0010
0000
0010
0000
0010
0000
0010
,
0000
0010
0000
0010
0000
0010
0000
0010
,
1000
0001
0010
0001
1000
0000
0000
0000
,
0100
0000
0010
0000
0001
1000
0100
0000
,
0010
0000
0000
0001
1000
0001
0000
0000
,
0000
0000
0000
0100
0010
0100
1000
0000
,
0000
0000
0010
0100
0001
0000
0001
0000
,
1000
0000
0100
0000
0010
0100
0010
0000
,
0001
0000
0000
1000
0001
1000
0000
0000
,
0001
0000
0000
0010
0001
0010
0001
0000
,
0000
0000
1000
0100
1000
0000
0010
0000
,
0010
0000
1000
0000
0001
1000
0001
0000
,
1000
0000
0000
0100
1000
0010
0000
0000
,
0001
0000
0000
0010
0001
0100
0001
0000
,
0000
0000
1000
0001
0100
0000
0001
0000
,
1000
0000
0001
0000
1000
0001
1000
0000
,
0100
0000
1000
0000
0010
1000
0100
0000
,
1010
0000
0001
0000
0100
0001
0010
0000
,
0000
0000
0001
1000
0001
0000
2000
0000
,
0000
3000
0000
0000
0000
0000
0000
0000;

//---------------dance-single - BASIC----------------
#NOTES:
     dance-single:
     BASIC:
     easy:
     2:
     0.265,0.353,0.109,0.044,0.000,156.000,10.000,4.000,0.000,0.000:

0000
0000
0000
0000
,
0000
0000
0000
0000
,
0000
0000
0000
0000
,
0000
0010
1000
0001
,
0000
0000
0000
0000
,
0000
0000
0000
0000
,
0200
0000
0000
0000
,
0000
0010
0010
0310
,
0110
0000
0000
0000
,
0100
1000
0001
0000
,
0100
0001
1000
0000
,
0100
0010
0001
1000
,
0000
0101
0101
0101
,
0001
1000
0100
0010
,
0000
0100
0001
0000
,
1000
0010
0100
0001
,
0000
1000
0100
0010
,
0100
1000
0010
0001
,
0100
0001
1000
0000
,
0010
1000
0001
0000
,
0100
0000
0010
0010
,
0100
0000
1000
0001
,
0000
0100
0010
0000
,
1000
0000
0001
0000
,
0000
0001
1001
0000
,
0000
0001
0000
0000
,
0000
1000
0001
0000
,
0000
0000
0010
0000
,
0000
0100
1000
0001
,
0000
0000
0010
0000
,
0100
0000
0001
0000
,
1000
0000
0100
0000
,
0000
0010
0001
1000
,
0100
0000
0100
0000
,
0100
0000
0100
0000
,
0100
0010
0010
0100
,
0100
0010
0010
0100
,
0002
0000
0000
0000
,
1000
0000
0000
0000
,
1003
0000
0200
0000
,
0310
0000
0100
1000
,
0001
0000
0000
0000
,
0100
0000
0000
0000
,
0000
1010
1010
1010
,
0000
0010
0000
0000
,
0001
1000
0100
0000
,
0001
0000
0100
0000
,
0001
0010
0001
0000
,
0001
1000
0001
1001
,
0001
0100
0010
1000
,
0001
1000
0100
0010
,
0001
0000
1000
0000
,
0001
1000
0200
0010
,
1300
0001
1000
0100
,
0010
0000
1000
0000
,
0001
0000
0100
0000
,
0001
1000
0100
0010
,
0001
0000
0010
0000
,
0010
0001
1000
0000
,
0100
0000
0010
0000
,
0100
1000
0001
0000
,
0010
0000
0001
0000
,
0010
0100
0010
0000
,
0100
1000
0001
0000
,
0100
0001
1000
1001;
